<?xml version="1.0" standalone="no"?>
<!DOCTYPE svg PUBLIC "-//W3C//DTD SVG 1.1//EN" "http://www.w3.org/Graphics/SVG/1.1/DTD/svg11.dtd" >
<svg xmlns="http://www.w3.org/2000/svg">
<metadata>
This is a custom SVG webfont generated by Font Squirrel.
Copyright   : This font drawn by and copyright Ben Weiner 19992001 Modifications for version 20 copyright Ben Weiner 20067 Licensed under the Open Font License httpscriptssilorgOFL See accompanying license and FONTLOG
</metadata>
<defs>
<font id="webfontZMWmRIPG" horiz-adv-x="1097" >
<font-face units-per-em="2048" ascent="1638" descent="-410" />
<missing-glyph horiz-adv-x="559" />
<glyph unicode=" "  horiz-adv-x="559" />
<glyph unicode="&#x09;" horiz-adv-x="559" />
<glyph unicode="&#xa0;" horiz-adv-x="559" />
<glyph unicode="!" horiz-adv-x="481" d="M297 393h-174l110 1053h175zM154 -27q-47 0 -78 34t-25 83q4 49 42 84t85 35q51 0 82 -35t27 -84q-6 -49 -44 -83t-89 -34z" />
<glyph unicode="&#x22;" horiz-adv-x="673" d="M551 1395q-98 0 -111 -115q-4 -45 14.5 -152.5t39.5 -154.5h28q33 51 72 160q37 102 41 147q12 115 -84 115zM260 1395q-96 0 -108 -115q-4 -45 13 -152.5t40 -154.5h26q33 51 72 160q37 102 41 147q12 115 -84 115z" />
<glyph unicode="#" d="M926 1147l-166 -19l-17 -159l164 16l-12 -106l-164 -17l-22 -198l-117 -13l22 199l-165 -19l-23 -198l-119 -12l23 198l-211 -22l12 106l211 23l16 161l-208 -22l12 106l211 23l16 154l117 12l-19 -154l168 17l17 153l121 17l-21 -158l166 18zM477 1100l-18 -162l166 18 l18 160z" />
<glyph unicode="$" d="M578 -12l-21 -193h-182l20 187q-205 29 -286 159l110 127q102 -137 270 -137q94 0 165 55.5t79 155.5q10 98 -80 154q-27 16 -174 71q-119 45 -174 97q-78 76 -78 200q0 27 2 54q12 115 99 202q82 82 198 111l21 182h182l-18 -176q123 -23 231 -121l-102 -119 q-102 96 -226 97q-182 0 -200 -187q-12 -109 170 -172t239 -110q88 -72 88 -213q0 -31 -2 -66q-30 -297 -331 -358z" />
<glyph unicode="%" d="M291 840q-88 0 -141.5 52t-53.5 155q0 18 2 40q10 106 80 175t166 69q94 0 149.5 -68.5t45.5 -175.5q-12 -121 -81 -184t-167 -63zM139 -160l-145 51l919 1395l136 -53zM758 -4q-201 0 -201 209q0 23 4 45q10 109 82 179.5t170 70.5q94 0 150.5 -71t46.5 -179 q-14 -125 -83 -189.5t-169 -64.5zM329.5 1217q-32.5 0 -63.5 -31q-37 -37 -43 -105q-8 -68 23 -102q23 -29 57.5 -29t63.5 29q37 35 45 102q6 68 -25 105q-25 31 -57.5 31zM797 381q-33 0 -64 -31q-37 -39 -45 -108q-6 -70 25 -105q23 -27 57.5 -26.5t63.5 26.5 q39 37 45 105q8 70 -23 108q-24 31 -59 31z" />
<glyph unicode="&#x26;" horiz-adv-x="1136" d="M358 629q-170 -90 -188 -264q-10 -100 47 -166q61 -74 182 -74q135 0 240 117q-203 233 -281 387zM913 8q-78 27 -180 127q-168 -154 -338 -153q-186 0 -286 96q-92 88 -93 227q0 131 82 252q80 115 203 178q-80 127 -65 256q14 137 120.5 228.5t239.5 91.5 q172 0 293 -148l-107 -98q-82 115 -213 115q-152 0 -170 -158q-8 -92 39 -213q115 45 234 49l16 -125q-109 0 -182 -33q135 -223 229 -327q39 102 43 143q6 47 -6 129l146 12q8 -209 -74 -393q47 -61 178 -129z" />
<glyph unicode="'" horiz-adv-x="397" d="M246 1399q-98 0 -111 -115q-4 -49 17 -158q23 -117 51 -153q39 55 79 155.5t46 155.5q12 115 -82 115z" />
<glyph unicode="(" horiz-adv-x="651" d="M256 -283q-172 362 -172 766q0 289 100 588q98 291 273 533l123 -62q-266 -496 -308 -880q-10 -90 -10 -177q0 -170 41 -354q20 -94 94 -352z" />
<glyph unicode=")" horiz-adv-x="647" d="M197 -283l-131 62q160 319 200 422q90 223 115 452q8 88 8 176q0 319 -129 713l137 62q164 -328 164 -740q1 -615 -364 -1147z" />
<glyph unicode="*" horiz-adv-x="563" d="M449 973l-136 123l9 -183h-97l6 183l-135 -123l-55 90l166 102l-164 105l53 90l140 -125l-9 184l97 -2l-11 -182l136 125l51 -90l-158 -103l160 -104z" />
<glyph unicode="+" horiz-adv-x="1019" d="M571 578v-381h-125v381h-337v129h337v360h125v-360h342v-129h-342z" />
<glyph unicode="," horiz-adv-x="520" d="M113 -147l88 -25q213 244 233 418h-198q-10 -90 -54 -221q-38 -121 -69 -172z" />
<glyph unicode="-" horiz-adv-x="778" d="M102 547v190h574v-190h-574z" />
<glyph unicode="." horiz-adv-x="477" d="M245.5 -18q-55.5 0 -91 43t-29.5 106.5t52 106.5t101.5 43t90 -43t28.5 -106.5t-51 -106.5t-100.5 -43z" />
<glyph unicode="/" horiz-adv-x="788" d="M96 -348l-162 35l793 1755l164 -35z" />
<glyph unicode="0" d="M465 -18q-225 0 -332 170q-92 141 -92 378q0 297 139 521q162 264 441 264q211 0 327 -162q106 -150 107 -383q0 -299 -144 -524q-165 -264 -446 -264zM891 666q6 55 6 106q0 391 -293 391q-211 0 -319 -213q-84 -168 -84 -399q0 -180 59 -287q72 -131 221 -131 q178 0 293 178q94 148 117 355z" />
<glyph unicode="1" horiz-adv-x="989" d="M551 0h-182l125 1182h-283l14 123h465z" />
<glyph unicode="2" d="M80 0l16 158l422 434q236 244 254 414q8 74 -50 137t-136 63q-143 0 -277 -147l-88 100q190 190 377 191q143 0 246.5 -115t87.5 -264q-18 -184 -254 -439l-350 -374h600l-17 -158h-831z" />
<glyph unicode="3" d="M88 94l84 99q57 -57 139 -101q94 -49 168 -49q133 0 219 102q72 88 86 207q10 106 -67.5 181t-222.5 75q-25 0 -72 2h-70l13 135h45q39 -2 47 -2q35 0 108 23q174 53 191 221q12 100 -37 176q-55 86 -162 86q-61 0 -146 -50t-124 -101l-80 94q172 180 356 180 q158 0 265.5 -110.5t91.5 -260.5q-10 -94 -80 -178q-76 -90 -183 -112q129 -25 221.5 -127.5t79.5 -223.5q-18 -176 -143 -297q-143 -137 -371 -137q-225 0 -356 168z" />
<glyph unicode="4" d="M715 1038l-467 -596h403zM774 287l-37 -344h-141l39 344h-598l16 155l709 887h123l-94 -887h215l-17 -155h-215z" />
<glyph unicode="5" d="M455 -70q-113 0 -235 65.5t-165 147.5l78 111q57 -76 154 -133q106 -66 198 -66q135 0 235.5 94.5t113.5 221.5q14 135 -65 231t-189 96q-63 0 -142 -36q-94 -47 -133 -123l-123 65l76 703h723l-18 -166h-570l-47 -436q80 131 266 133q178 2 286 -103.5t108 -288.5 q0 -229 -157.5 -372.5t-393.5 -143.5z" />
<glyph unicode="6" d="M588 762q-145 0 -251 -107.5t-106 -251.5q0 -129 72 -217q80 -100 217 -100t242 123q98 117 98 256q0 137 -75.5 217t-196.5 80zM506 -45q-195 0 -313 108q-139 127 -140 377q0 51 6 107q35 344 205 559q188 240 496 240q164 0 319 -78l-78 -125q-129 68 -258 67 q-186 0 -327 -163q-135 -156 -170 -381q78 119 192 180q100 55 201 55q154 0 262 -115q117 -121 117 -303q0 -217 -147.5 -372.5t-364.5 -155.5z" />
<glyph unicode="7" d="M1026 1174l-715 -1233l-164 45l693 1190h-617l13 122h802z" />
<glyph unicode="8" d="M543 641q-168 -78 -211 -109q-100 -74 -113 -188q-14 -139 92 -217q82 -59 185 -59q125 0 214 74.5t103 201.5q12 117 -74 193q-51 43 -196 104zM600 1245q-88 0 -158 -57q-78 -61 -98 -168q6 -88 64 -143q43 -41 139 -82q260 90 274 231q10 94 -61 160q-68 59 -160 59z M469 -57q-180 0 -297 86q-125 96 -125 266q0 145 113 264q94 100 248 162q-125 82 -162 123q-66 76 -56 176q16 160 160 258q127 84 283 84q145 0 244 -82q111 -92 94 -236q-20 -188 -279 -315q319 -125 291 -379q-18 -176 -145 -287q-140 -120 -369 -120z" />
<glyph unicode="9" d="M594 1200q-123 0 -209 -106q-76 -92 -88 -217q-14 -123 47 -213q68 -100 191 -101q152 0 251 94.5t99 243.5q0 125 -72 207q-80 92 -219 92zM457 -74q-252 0 -394 146l76 125q137 -135 348 -136q176 0 287 205q86 158 115 389q-86 -125 -154 -170q-88 -59 -221 -57 q-176 2 -281 117q-98 109 -98 272q0 215 127 361q133 154 344 153q182 0 305 -110q147 -131 148 -377q0 -45 -6 -94q-35 -326 -146 -531q-157 -293 -450 -293z" />
<glyph unicode=":" horiz-adv-x="499" d="M297 737q-53 0 -91 43t-30 107q6 63 52 106t100 43q55 0 92 -43t31 -106q-8 -63 -53.5 -106.5t-100.5 -43.5zM217 -18q-55 0 -92 43t-31 106q8 63 54.5 106.5t99.5 43.5q55 0 92 -43t29 -107q-6 -63 -51.5 -106t-100.5 -43z" />
<glyph unicode=";" horiz-adv-x="520" d="M334 739q-57 0 -95 42t-30 104q6 61 52 104t104 43q55 0 91 -42t29 -105q-8 -61 -52 -103.5t-99 -42.5zM72 -147l88 -25q211 244 231 418h-198q-8 -90 -52 -221q-38 -121 -69 -172z" />
<glyph unicode="&#x3c;" horiz-adv-x="749" d="M270 584l383 -492l-149 -6l-449 506l447 491l151 -6z" />
<glyph unicode="=" horiz-adv-x="903" d="M104 588v133h693v-133h-693zM104 276v134h693v-134h-693z" />
<glyph unicode="&#x3e;" horiz-adv-x="747" d="M203 86l-152 6l383 492l-385 493l154 6l444 -491z" />
<glyph unicode="?" horiz-adv-x="991" d="M711 760l-109 -78q-59 -49 -84 -117q-16 -39 -35 -78q-4 -12 -4 -100h-141q-4 158 29 236q37 90 161 188q102 80 121 100q63 63 72 131q8 94 -45 149.5t-139 55.5q-193 0 -285 -213l-129 72q147 289 424 289q170 0 264 -115q82 -104 68 -240q-16 -161 -168 -280zM373 -27 q-47 0 -77 34t-26 83q6 49 43 84t84 35q51 0 83 -35t26 -84q-4 -49 -43 -83t-90 -34z" />
<glyph unicode="@" horiz-adv-x="2068" d="M1010 -475q-385 0 -645 287q-256 279 -256 675q0 391 275 667t667 276q387 0 620.5 -244t233.5 -637q0 -217 -150 -385q-63 -72 -172 -127q-119 -61 -213 -62q-76 0 -121 58.5t-37 144.5q-154 -201 -344 -201q-313 0 -313 433q0 231 141 424q156 215 387 215 q63 0 129 -23q84 -29 119 -82l6 84h150l-131 -835q2 -25 24.5 -46.5t51.5 -23.5q31 -2 100.5 38t103.5 79q53 57 90 155q37 90 37 154q0 334 -191.5 536.5t-520.5 202.5q-332 0 -566.5 -234.5t-234.5 -566.5q0 -338 213 -577q221 -244 547 -244q317 0 524 105 q188 96 311 295l137 -89q-154 -258 -413 -364q-217 -88 -559 -88zM1307 815q-27 51 -107 82q-63 25 -123 25q-92 0 -196 -88q-156 -133 -156 -394q0 -135 25 -194q47 -115 190 -115q82 0 179.5 95.5t115.5 193.5z" />
<glyph unicode="A" horiz-adv-x="1163" d="M856 -20l-80 387h-461l-159 -387l-166 20l577 1339h164l301 -1331zM625 1128l-252 -620h377z" />
<glyph unicode="B" horiz-adv-x="1073" d="M475 0l-416 4l140 1309l340 6q2 0 28 2h27q152 0 234.5 -69.5t82.5 -198.5q0 -117 -34 -187q-33 -61 -79 -92t-141 -55q281 -61 281 -295q0 -23 -4 -47q-18 -180 -144 -280q-123 -97 -307 -97h-8zM539 1198q-29 0 -170 -6l-45 -424l139 -2h7q114 0 188 59q77 61 87 162 q2 17 2 34q1 177 -208 177zM498 639h-189l-53 -502h193q285 0 309 242q2 16 2 31q0 87 -60 152q-69 77 -202 77z" />
<glyph unicode="C" horiz-adv-x="1103" d="M565 -16q-252 0 -387 176q-119 158 -119 409q0 307 168 533q186 248 486 250q100 0 223 -43q96 -33 156 -70l-97 -162q-174 115 -288 115q-205 0 -336 -195q-104 -152 -125 -348q-4 -39 -4 -76q0 -188 94 -307t244 -119q174 0 338 89l65 -134q-135 -70 -207 -90 q-92 -28 -211 -28z" />
<glyph unicode="D" horiz-adv-x="1157" d="M371 -4q-59 0 -152.5 4t-159.5 4l140 1315q141 6 299 6q307 0 450 -123q152 -127 152 -407q0 -61 -8 -133q-33 -315 -211 -488q-186 -178 -510 -178zM895 639q8 74 8 137q0 418 -364 418q-59 0 -172 -4l-109 -1038h184q195 0 320 153q113 135 133 334z" />
<glyph unicode="E" horiz-adv-x="1001" d="M365 1163l-41 -395h516l-17 -154l-516 2l-49 -460l547 2l-17 -158h-729l140 1311h735l-16 -148h-553z" />
<glyph unicode="F" horiz-adv-x="1003" d="M365 1163l-41 -395h520l-17 -154h-520l-65 -614h-183l140 1311h737l-16 -148h-555z" />
<glyph unicode="G" horiz-adv-x="1191" d="M1006 125q-133 -76 -215 -102q-104 -35 -238 -35q-242 0 -375 178q-121 158 -121 403q0 47 6 93q25 252 181 452q182 238 444 238q94 0 213 -33q131 -39 189 -90l-93 -154q-158 117 -307 117q-193 0 -321 -199q-100 -156 -121 -344q-4 -39 -4 -78q0 -184 88 -304 t231 -120q145 0 271 64l43 405h-291l16 152h471z" />
<glyph unicode="H" horiz-adv-x="1191" d="M813 0l66 614h-572l-65 -614h-183l140 1311h182l-57 -543h571l57 543h181l-140 -1311h-180z" />
<glyph unicode="I" horiz-adv-x="440" d="M59 0l140 1315h182l-139 -1315h-183z" />
<glyph unicode="J" horiz-adv-x="440" d="M274 141q-23 -205 -122 -325q-119 -141 -336 -142q-123 0 -195 103l109 137q23 -29 63.5 -50.5t65.5 -21.5q201 0 231 283l125 1182h182z" />
<glyph unicode="K" horiz-adv-x="1087" d="M786 -43l-389 608l-110 -143l-45 -422h-183l140 1311h182l-70 -645q377 434 586 696l133 -102l-504 -574q68 -131 236 -358l246 -324z" />
<glyph unicode="L" horiz-adv-x="1026" d="M59 0l140 1313h182l-123 -1166h586l-17 -147h-768z" />
<glyph unicode="M" horiz-adv-x="1624" d="M1221 0l110 1047l-508 -1049h-170l-291 1057l-112 -1055h-168l139 1315h260l293 -1055l529 1055h239l-139 -1315h-182z" />
<glyph unicode="N" horiz-adv-x="1191" d="M862 -23q-150 332 -530 973l-101 -948l-172 -2l142 1319h151l514 -932l99 924h168l-136 -1288z" />
<glyph unicode="O" horiz-adv-x="1318" d="M582 -33q-233 0 -373 146q-147 156 -148 432q0 55 7 114q31 289 220 476.5t451 187.5q238 0 380.5 -157.5t142.5 -411.5q0 -47 -5 -95q-35 -328 -233 -516q-182 -176 -442 -176zM719 1171q-215 0 -359 -198q-129 -178 -129 -404q0 -190 101.5 -317t265.5 -127 q215 0 360 192q133 178 134 398q0 197 -99 323q-104 133 -274 133z" />
<glyph unicode="P" horiz-adv-x="940" d="M487 541q-78 0 -188 8l-57 -549h-183l140 1311l387 8h13q140 0 222 -86q86 -90 86 -238q0 -178 -119 -313q-125 -141 -301 -141zM549 1198l-180 -4l-56 -518l160 2q121 2 191 102q63 88 63 213q0 205 -171 205h-7z" />
<glyph unicode="Q" horiz-adv-x="1347" d="M1165 -143l-227 219q-164 -109 -352 -109q-231 0 -373 148q-147 156 -147 432q0 55 6 115q31 289 220 475t453 186q238 0 379.5 -154.5t141.5 -406.5q0 -147 -49 -309q-57 -180 -148 -265l217 -211zM723 1169q-217 0 -358 -194q-129 -176 -129 -402q0 -190 99 -319 t261 -129q113 0 225 65l-139 136l123 118l143 -139q123 150 144 342q4 39 4 76q0 193 -99 317q-104 129 -274 129z" />
<glyph unicode="R" horiz-adv-x="1085" d="M776 -20q-94 106 -209 301q-74 125 -172 315l-90 -4l-63 -592h-183l140 1313q414 6 415 6q319 -4 320 -293q0 -33 -4 -70q-18 -150 -125 -243q-92 -80 -225 -107q55 -92 190 -295q70 -106 238 -291zM547 1194l-178 -4l-50 -461h134q164 0 238.5 68.5t74.5 228.5 q0 168 -209 168h-10z" />
<glyph unicode="S" horiz-adv-x="1007" d="M416 -20q-123 0 -230.5 46t-156.5 124l108 131q109 -145 301 -146q109 0 183 58q82 66 94 182q1 10 1 20q0 116 -132 178l-275 117q-152 88 -151 264q0 29 4 60q16 152 145 252q123 98 287 98q188 0 332 -125l-99 -129q-98 98 -249 98q-209 0 -232 -207q-1 -8 -1 -16 q0 -117 194 -184q199 -70 262 -121q94 -76 94 -229q0 -33 -4 -72q-20 -201 -168 -307q-127 -92 -307 -92z" />
<glyph unicode="T" d="M707 1171l-125 -1171h-183l125 1171h-405l14 138h969l-15 -138h-380z" />
<glyph unicode="U" horiz-adv-x="1169" d="M1022 471q-27 -256 -191 -391q-141 -115 -335 -115q-168 0 -273 96q-117 109 -117 322q0 41 5 88l90 840h182l-90 -840q-4 -41 -4 -80q0 -272 227 -272q121 0 203 76q100 92 119 276l90 840h184z" />
<glyph unicode="V" horiz-adv-x="1122" d="M565 -20h-133l-280 1310l178 47l213 -1069l438 1069l147 -47z" />
<glyph unicode="W" horiz-adv-x="1615" d="M1141 -12h-107l-190 952l-391 -952h-129l-226 1294l183 39l163 -1022l381 1001h131l164 -999l385 1020l135 -39z" />
<glyph unicode="X" horiz-adv-x="1130" d="M791 -31l-259 570l-344 -570l-182 41l449 639l-289 633l190 39l222 -498l317 500l149 -41l-401 -598l346 -674z" />
<glyph unicode="Y" horiz-adv-x="1030" d="M594 557l-57 -557h-185l58 557l-285 727l168 47l233 -608l357 608l151 -47z" />
<glyph unicode="Z" horiz-adv-x="1114" d="M276 156h650l-17 -156h-835l2 158l768 1018l-625 -5l14 138h805v-148z" />
<glyph unicode="[" horiz-adv-x="550" d="M23 -233l184 1749h313l-10 -105h-145l-160 -1501h166l-15 -143h-333z" />
<glyph unicode="\" horiz-adv-x="788" d="M537 -348l-420 1755l166 35l422 -1755z" />
<glyph unicode="]" horiz-adv-x="544" d="M10 -233l15 143h165l160 1501h-147l10 105h309l-184 -1749h-328z" />
<glyph unicode="^" d="M553 1212l-266 -284l-74 106l358 355l289 -355l-98 -106z" />
<glyph unicode="_" d="M4 -223l12 121h1076l-13 -121h-1075z" />
<glyph unicode="`" horiz-adv-x="673" d="M528 1139l-409 184l110 133l410 -196z" />
<glyph unicode="a" horiz-adv-x="1009" d="M748 895q-90 16 -154 16q-174 0 -275 -153q-88 -135 -88 -328q0 -299 185 -299q72 0 170 122t112 243zM922 1028l-84 -739q-4 -33 -4 -74q0 -102 22 -215h-174l-4 244l-90 -154q-88 -113 -219 -113q-156 0 -240 142q-68 117 -68 284q0 262 162 449q168 195 426 195 q66 0 138 -9.5t135 -9.5z" />
<glyph unicode="b" horiz-adv-x="1054" d="M479 -20q-131 0 -252 102l-39 -82h-133l154 1434h162l-56 -516q154 131 271 131q186 0 291 -134q94 -119 94 -309q0 -37 -4 -76q-29 -268 -164 -413q-127 -137 -324 -137zM567 907q-186 0 -268 -147l-57 -539q31 -49 102 -78q66 -29 133 -28q260 0 305 409q4 39 4 76 q0 307 -219 307z" />
<glyph unicode="c" horiz-adv-x="980" d="M494 -25q-238 0 -344 162q-74 117 -74 291q0 35 2 68q31 276 198 422q141 121 328 120h6q180 -2 312 -108l-101 -135q-72 57 -114 77q-57 27 -134 27q-137 0 -227 -125q-80 -113 -98 -287q-4 -31 -4 -59q0 -147 82 -233q74 -78 184 -78q147 0 287 112l67 -106 q-165 -148 -370 -148z" />
<glyph unicode="d" horiz-adv-x="1046" d="M844 0h-135l-17 86q-178 -113 -297 -113q-166 0 -260 140q-84 123 -84 309q0 246 125 424q141 203 377 203q143 0 229 -119l54 497h159zM766 778q-47 76 -94 102.5t-142 26.5q-152 0 -231 -164q-63 -131 -63 -299q0 -141 55 -227q59 -92 174 -92q125 0 242 92z" />
<glyph unicode="e" horiz-adv-x="991" d="M729 874.5q-45 28.5 -149 28.5q-166 0 -258 -137q-57 -86 -74 -182q17 -1 34 -1q126 0 316 38q176 34 176 150q0 75 -45 103.5zM236 465q-3 -19 -3 -49v-33q2 -59 32 -129t108 -109q66 -31 137 -30q117 0 285 131l67 -115q-184 -156 -383 -156q-393 0 -416 402 q-1 25 -1 49q0 231 124 401q152 211 422 211q139 0 226 -65q96 -74 96 -217q0 -90 -84 -166q-74 -63 -166 -84q-211 -47 -342 -47q-49 0 -102 6z" />
<glyph unicode="f" horiz-adv-x="663" d="M748 1333q-88 61 -168 64h-5q-69 0 -116 -64q-55 -70 -66 -190l-14 -129h285l-15 -133h-284l-138 -1233h-155l137 1233h-160l14 133h160l15 135q14 141 84 242q96 137 270 137q90 0 137 -21q14 -6 109 -69z" />
<glyph unicode="g" horiz-adv-x="1046" d="M893 127q-33 -317 -107 -444q-111 -193 -380 -193q-236 0 -381 193l98 114q113 -164 315 -164q150 0 213 138q31 63 54 229l28 203q-111 -223 -256 -223q-182 0 -287 124q-96 115 -96 295q0 53 10 109q35 203 144 342q145 184 381 184q98 0 149 -5t111 -5h98zM811 889 q-92 16 -182 16q-176 -2 -275 -160q-84 -133 -84 -319q0 -123 52 -207q61 -96 170 -96q84 0 176 113q76 94 82 150.5t61 502.5z" />
<glyph unicode="h" horiz-adv-x="1048" d="M684 0l72 666q2 23 2 43q0 100 -56 153q-45 45 -114 45q-92 0 -192.5 -73.5t-106.5 -137.5l-74 -696h-162l152 1425h162l-56 -526q98 84 164 116t143 32q123 0 209 -84q92 -90 93 -228q0 -23 -2 -43l-74 -692h-160z" />
<glyph unicode="i" horiz-adv-x="477" d="M293 1233q-45 0 -75 32q-25 26 -24 64q0 8 1 17q4 47 39.5 78.5t82.5 31.5q43 0 72 -32q25 -28 25 -67v-11q-6 -49 -41 -81t-80 -32zM68 0l108 1014h166l-109 -1014h-165z" />
<glyph unicode="j" horiz-adv-x="477" d="M344 1237q-45 0 -75 32q-25 26 -24 63q0 8 1 16q4 47 40 78.5t81 31.5q47 0 75 -32q25 -28 25 -67v-11q-6 -47 -42 -79t-81 -32zM41 -223q-63 -45 -152 -70l50 -153q117 43 190 94q121 84 137 219l33 317l88 830h-162l-110 -1057q-8 -68 -17 -98q-18 -55 -57 -82z" />
<glyph unicode="k" horiz-adv-x="974" d="M731 -51l-395 514l-76 -70l-43 -393h-162l152 1427h162l-90 -862l499 502l129 -94l-450 -416l426 -520z" />
<glyph unicode="l" horiz-adv-x="479" d="M244 0h-160l152 1430h159z" />
<glyph unicode="m" horiz-adv-x="1589" d="M1243 0l76 709q2 20 2 38q0 160 -162 160q-57 0 -149 -65q-113 -78 -123 -183l-70 -659h-160l76 719q2 17 2 32q0 71 -39 111q-41 43 -110 43q-84 0 -177.5 -76.5t-101.5 -150.5l-71 -678h-162l106 1014h162l-14 -144q174 168 305 168q78 0 141.5 -51t89.5 -135 q193 197 344 197q131 0 211 -107q63 -86 63 -189q0 -17 -1 -34l-76 -719h-162z" />
<glyph unicode="n" horiz-adv-x="1048" d="M705 0l69 666q4 23 4 43q0 100 -55 153q-45 45 -115 45q-82 0 -180 -65q-111 -76 -121 -170l-71 -672h-162l106 1014h162l-12 -115q100 84 165.5 116t145.5 32q119 0 205 -84q94 -92 94 -230q0 -20 -2 -41l-74 -692h-159z" />
<glyph unicode="o" horiz-adv-x="1118" d="M506 -23q-242 0 -350 162q-80 115 -80 297q0 41 4 80q29 264 209 412q150 121 334 121q166 0 282 -105q137 -123 137 -348q0 -39 -4 -80q-18 -182 -129 -334q-151 -205 -403 -205zM618 911q-180 0 -280 -155q-86 -133 -86 -320q0 -141 59 -227q70 -98 201 -98 q174 0 272 157q82 133 82 318q0 141 -57 227q-66 98 -191 98z" />
<glyph unicode="p" horiz-adv-x="1058" d="M492 -27q-129 0 -226 117l-53 -493h-162l152 1417h162l-11 -96q150 131 254 131q403 0 404 -404q0 -270 -119 -455q-141 -217 -401 -217zM590 911q-74 0 -151 -48t-103 -118l-57 -538q115 -96 237 -96q131 0 221 143q74 119 88 264q4 47 4 88q1 305 -239 305z" />
<glyph unicode="q" horiz-adv-x="1046" d="M676 -403l55 514q-205 -137 -307 -138q-152 0 -242 128t-90 331q0 45 6 94q20 207 127 346q134 176 366 177h5q63 0 133 -41q61 -35 90 -76l8 82h164l-151 -1417h-164zM799 748q-14 72 -73.5 118.5t-137.5 46.5q-160 0 -248 -159q-72 -131 -72 -303q0 -139 65.5 -232.5 t172.5 -93.5q109 0 237 92z" />
<glyph unicode="r" horiz-adv-x="700" d="M645 840q-84 25 -108 24q-68 -2 -156 -110q-78 -98 -82 -142l-63 -612h-162l108 1014h162l-25 -205q168 227 281 227q35 0 111 -32z" />
<glyph unicode="s" horiz-adv-x="894" d="M381 -29q-211 0 -328 119l97 125q94 -102 262 -102q82 0 147 61q59 55 66 115q1 8 1 15q0 96 -145 140q-88 20 -237 78q-100 55 -100 177q0 16 1 32q16 160 134 246q98 76 232 76h7q139 -2 285 -95l-68 -129q-133 92 -237 93q-178 0 -195 -150q-1 -7 -1 -14q0 -67 73 -96 l284 -97q139 -68 139 -209q0 -15 -1 -30q-16 -172 -144 -269q-112 -86 -272 -86z" />
<glyph unicode="t" horiz-adv-x="718" d="M373 -16q-88 0 -145.5 70.5t-57.5 189.5q0 27 2 53l61 584h-161l14 135h162l22 207h162l-22 -207h305l-15 -137l-305 2l-63 -609q-2 -15 -2 -28q0 -109 104 -109q63 0 170 92l68 -110q-129 -133 -299 -133z" />
<glyph unicode="u" horiz-adv-x="1046" d="M862 0h-145l-12 106q-166 -143 -328 -143q-111 0 -187 82q-82 86 -81 229q0 27 4 54l71 686h162l-72 -678q-2 -25 -2 -47q0 -180 158 -180q96 0 197.5 76.5t109.5 150.5l72 678h160z" />
<glyph unicode="v" horiz-adv-x="950" d="M479 -25h-110l-273 1006l166 45l195 -790l348 790l151 -45z" />
<glyph unicode="w" horiz-adv-x="1505" d="M1094 -18h-125l-187 757l-350 -757h-129l-197 999l162 41l142 -809l335 795h144l178 -793l301 807l145 -41z" />
<glyph unicode="x" horiz-adv-x="1007" d="M784 -53l-288 442l-377 -438l-127 92l420 461l-285 446l160 90l245 -405l342 403l119 -71l-393 -453l332 -473z" />
<glyph unicode="y" horiz-adv-x="983" d="M459 -172q-43 -88 -133 -154q-102 -76 -215 -75q-31 0 -138 36l68 146q51 -27 98 -29h3q93 0 177 121q6 10 101 180l-287 926l162 43l221 -758l352 756l142 -35z" />
<glyph unicode="z" horiz-adv-x="987" d="M55 0l15 135l532 621q47 53 117 125h-551l14 131h742l-15 -144l-516 -612q-27 -31 -104 -113h571l-14 -143h-791z" />
<glyph unicode="{" d="M909 1532q-82 27 -114 27q-92 0 -127 -43q-41 -55 -62 -236q-4 -53 -9 -145.5t-7 -122.5q-16 -147 -201 -299l-6 -51q59 -47 100 -130q51 -98 52 -204q0 -20 -3 -43q-4 -47 -25.5 -167t-25.5 -165q-12 -121 -6 -152q14 -59 88 -59q90 0 146 43l24 -154q-129 -39 -192 -34 q-147 8 -203 106q-43 76 -39 223q2 55 16 178q2 29 15.5 114t17.5 134q10 86 -29 174q-33 76 -90 127l11 82q88 80 114 119q55 74 66 164q4 49 8 143t8 135q45 412 371 412q51 0 147 -22z" />
<glyph unicode="|" horiz-adv-x="468" d="M76 -451l196 1856h181l-197 -1856h-180z" />
<glyph unicode="}" d="M698 352q-4 -49 -9 -134t-7 -114q-12 -115 -23 -170q-18 -100 -49 -165q-76 -164 -264 -172q-63 -2 -184 34l57 154q47 -43 137 -43q102 0 117 127q4 27 10 84q4 47 9.5 167t9.5 165q12 119 90 231q63 94 137 146l6 51q-152 152 -135 299q2 27 27 194q18 119 18 197 q0 98 -33 131q-27 25 -102 25q-33 0 -119 -27l-16 154q102 23 155 22q287 0 287 -322q0 -72 -18 -184q-25 -152 -29 -184q-10 -90 29 -164q20 -39 90 -119l-6 -82q-165 -123 -185 -301z" />
<glyph unicode="~" horiz-adv-x="808" d="M559 776q-49 0 -114.5 56.5t-102.5 56.5q-59 0 -145 -109l-23 148q84 90 186 90q72 0 162 -70q37 -29 68 -28q33 0 69 41l37 34l23 -143q-84 -76 -160 -76z" />
<glyph unicode="&#xa1;" horiz-adv-x="481" d="M182 1026h172l-131 -1237h-172zM322 1446q51 0 80.5 -34t25.5 -83q-6 -49 -44 -84t-87 -35t-80 35t-24 84q4 49 42 83t87 34z" />
<glyph unicode="&#xa2;" horiz-adv-x="980" d="M403 -20q-186 29 -270 182q-61 111 -61 264q0 37 4 70q27 242 160 385q113 123 280 151l19 176h182l-19 -174q127 -23 226 -104l-105 -139q-117 100 -246 100q-137 0 -225 -121q-80 -109 -98 -283q-4 -31 -4 -59q0 -147 82 -229q72 -74 182 -74q154 0 287 108l69 -110 q-131 -117 -280 -141l-17 -164h-182z" />
<glyph unicode="&#xa3;" horiz-adv-x="974" d="M801 -14q-104 29 -260 28q-270 0 -451 -43l-6 140q31 8 82 26q12 4 37 27q78 68 90 186q14 133 0 266h-123l14 142h109q-10 184 -8 217q18 158 112 258q102 111 269 110q127 0 233 -65l-74 -125q-119 59 -161 59q-94 0 -159 -74.5t-75 -170.5q-4 -43 2 -105 q4 -53 10 -104h279l-14 -142h-244q-2 -125 -14 -251q-16 -158 -84 -209q164 23 225 22q139 0 260 -35z" />
<glyph unicode="&#xa4;" horiz-adv-x="1001" d="M836 737h-365l-10 -92h364l-14 -153h-365l-36 -336l395 2l-17 -158h-577l53 492h-203l13 153h205l10 94h-203l14 152h205l45 420h584l-16 -148h-402l-29 -272h365z" />
<glyph unicode="&#xa5;" horiz-adv-x="1087" d="M606 580l-4 -37h176l-12 -121h-176l-15 -123h177l-13 -121h-176l-18 -174h-183l19 174h-182l12 121h182l15 123h-183l13 121h182l4 37l-287 733h185l213 -541l327 541h187z" />
<glyph unicode="&#xa6;" horiz-adv-x="372" d="M111 -37v561h157v-561h-157zM111 782v561h157v-561h-157z" />
<glyph unicode="&#xa7;" horiz-adv-x="802" d="M322 -178q-158 0 -256 106l75 101q80 -92 203 -92q55 0 102 40q41 39 46 78q4 51 -35 80q-25 16 -86 33q-27 6 -76 20q-20 4 -35 13q-127 45 -115 174q14 123 115 186q-90 49 -78 158q12 117 99 180q76 57 174 55q109 -2 215 -71l-58 -103q-102 70 -172 70 q-68 0 -96.5 -26.5t-34.5 -92.5q-4 -35 49 -59l127 -37q193 -57 177 -209q-14 -125 -105 -186q78 -49 68 -158q-12 -127 -105 -197q-81 -63 -198 -63zM387 518q-102 -12 -115 -131q-4 -45 103 -76l61 -18q84 35 92 106q4 53 -36 80q-27 19 -105 39z" />
<glyph unicode="&#xa8;" horiz-adv-x="626" d="M510 1118q-49 0 -71.5 33t-18.5 74t33.5 73.5t81.5 32.5q47 0 70.5 -33.5t19.5 -72.5q-4 -41 -35 -74t-80 -33zM80 1118q-47 0 -70.5 33t-19.5 74t34.5 73.5t79.5 32.5q47 0 71 -32.5t19.5 -73.5t-35 -74t-79.5 -33z" />
<glyph unicode="&#xa9;" horiz-adv-x="1630" d="M811 209q-178 0 -279 137q-88 121 -88 305q0 174 91 295q102 137 280 139q123 0 248 -71l-49 -105q-121 74 -193 74q-131 0 -203 -125q-55 -98 -55 -223q0 -139 72 -230.5t176 -91.5q109 0 209 58l51 -86q-143 -76 -260 -76zM270 647q0 -225 160 -385t385 -160t385 160 t160 385t-160 385t-385 160t-385 -160t-160 -385zM137 647.5q0 280.5 199 479t479.5 198.5t479 -198.5t198.5 -479t-198.5 -479.5t-479 -199t-479.5 199t-199 479.5z" />
<glyph unicode="&#xaa;" horiz-adv-x="503" />
<glyph unicode="&#xab;" horiz-adv-x="798" d="M492 586l268 -330l-146 -6l-313 342l313 332l146 -6zM203 586l266 -330l-143 -6l-316 342l316 332l143 -6z" />
<glyph unicode="&#xac;" horiz-adv-x="1255" d="M971 57v455h-791v190h963v-645h-172z" />
<glyph unicode="&#xad;" horiz-adv-x="1019" d="M106 584v129h807v-129h-807z" />
<glyph unicode="&#x2212;" horiz-adv-x="1019" d="M106 584v129h807v-129h-807z" />
<glyph unicode="&#xae;" horiz-adv-x="1630" d="M272 647h-2q0 -225 160 -385t385 -160t385 160t160 385t-160 385t-385 160t-384 -160t-159 -385zM137 647.5q0 280.5 199 479t479.5 198.5t479 -198.5t198.5 -479t-198.5 -479.5t-479 -199t-479.5 199t-199 479.5zM1006 221q-70 70 -156 193q-55 80 -129 200l-59 -2v-379 h-117v840q199 4 264 4q229 -2 227 -231q-2 -186 -200 -223l141 -191q49 -63 174 -184zM776 997l-114 -2v-295h86q104 0 143 39t39 121q0 139 -154 137z" />
<glyph unicode="&#xaf;" horiz-adv-x="831" d="M209 1217l12 133h479l-12 -133h-479z" />
<glyph unicode="&#x2c9;" horiz-adv-x="831" d="M209 1217l12 133h479l-12 -133h-479z" />
<glyph unicode="&#xb0;" horiz-adv-x="559" d="M311 1458q115 0 182.5 -76.5t55.5 -189.5t-96 -189.5t-199 -76.5t-185.5 77.5t-58 188.5t98 188.5t202.5 77.5zM299 1356q-70 0 -121 -47t-59 -117t34 -117t113 -47q68 0 117 47t57.5 117t-31.5 117t-110 47z" />
<glyph unicode="&#xb1;" horiz-adv-x="1026" d="M571 573v-378h-127v376l-335 2v127h335v359h127v-359h342v-127h-342zM135 25v110h766v-110h-766z" />
<glyph unicode="&#xb2;" horiz-adv-x="2172" />
<glyph unicode="&#xb3;" horiz-adv-x="2172" />
<glyph unicode="&#xb4;" horiz-adv-x="673" d="M197 1141l-84 121l450 196l82 -133z" />
<glyph unicode="&#xb5;" horiz-adv-x="1040" d="M864 -125q-127 78 -137 250l-143 -125q-59 -45 -127 -45q-59 0 -113 27q-59 29 -80 77l-49 -460h-149l147 1396h149l-73 -700q-20 -199 217 -199q80 0 156 74q74 68 79 135l74 692h164l-80 -759q-12 -98 14 -160q18 -47 41 -64q37 -25 52 -41z" />
<glyph unicode="&#x3bc;" horiz-adv-x="1040" d="M864 -125q-127 78 -137 250l-143 -125q-59 -45 -127 -45q-59 0 -113 27q-59 29 -80 77l-49 -460h-149l147 1396h149l-73 -700q-20 -199 217 -199q80 0 156 74q74 68 79 135l74 692h164l-80 -759q-12 -98 14 -160q18 -47 41 -64q37 -25 52 -41z" />
<glyph unicode="&#xb6;" horiz-adv-x="1038" d="M895 0h-141v1315h141v-1315zM608 0h-141v690h-51q-315 0 -314 320q0 168 80 239q74 66 240 66h186v-1315z" />
<glyph unicode="&#xb7;" horiz-adv-x="483" d="M246 684q-57 0 -92 47t-29 115q8 68 53 115t101 47q57 0 92 -47.5t26 -114.5q-6 -68 -51 -115t-100 -47z" />
<glyph unicode="&#x2219;" horiz-adv-x="483" d="M246 684q-57 0 -92 47t-29 115q8 68 53 115t101 47q57 0 92 -47.5t26 -114.5q-6 -68 -51 -115t-100 -47z" />
<glyph unicode="&#xb8;" horiz-adv-x="419" d="M182 -449q-133 0 -166 99l82 69q53 -66 97 -65q74 0 81 70q8 80 -61 79q-29 0 -74 -30l-90 43l31 192l119 2l-21 -106q20 8 53 8q86 0 132 -59q41 -51 32 -123q-6 -72 -63.5 -125.5t-151.5 -53.5z" />
<glyph unicode="&#xb9;" horiz-adv-x="989" d="M551 0h-182l125 1182h-283l14 123h465z" />
<glyph unicode="&#xba;" horiz-adv-x="2172" />
<glyph unicode="&#xbb;" horiz-adv-x="804" d="M440 250l-145 6l268 330l-268 332l145 6l314 -332zM152 250l-148 6l268 330l-268 332l148 6l311 -332z" />
<glyph unicode="&#xbc;" horiz-adv-x="3186" d="M2804 1038l-467 -596h403zM2863 287l-37 -344h-141l39 344h-598l16 155l709 887h123l-94 -887h215l-17 -155h-215zM1220 135l-149 103l862 966l148 -102zM551 0h-182l125 1182h-283l14 123h465z" />
<glyph unicode="&#xbd;" horiz-adv-x="2172" />
<glyph unicode="&#xbe;" horiz-adv-x="2172" />
<glyph unicode="&#xbf;" horiz-adv-x="940" d="M209 455q119 80 168 221q45 125 47 305h164q2 -29 2 -61q0 -156 -49 -297q-57 -164 -165 -249t-124 -102q-63 -63 -70 -131q-10 -94 44.5 -149t138.5 -55q193 0 284 210l131 -69q-150 -289 -424 -289q-170 0 -264 115q-84 104 -69 239q20 203 186 312zM549 1395 q47 0 76.5 -34t25.5 -83q-6 -51 -43 -85t-86 -34t-80.5 35t-25.5 84q4 49 43 83t90 34z" />
<glyph unicode="&#xc0;" horiz-adv-x="1187" d="M846 -20l-80 387h-461l-158 -387l-165 20l575 1339h166l299 -1331zM616 1128l-254 -620h377zM807 1405l-410 184l111 133l410 -196z" />
<glyph unicode="&#xc1;" horiz-adv-x="1163" d="M846 -20l-80 387h-461l-158 -387l-165 20l575 1339h166l299 -1331zM616 1128l-254 -620h377zM475 1407l-84 121l451 196l82 -133z" />
<glyph unicode="&#xc2;" horiz-adv-x="1163" d="M846 -20l-80 387h-461l-158 -387l-165 20l575 1339h166l299 -1331zM616 1128l-254 -620h377zM651 1534l-299 -191l15 146l305 231l266 -231l-14 -146z" />
<glyph unicode="&#xc3;" horiz-adv-x="1187" d="M850 -20l-80 387h-461l-157 -387l-166 20l575 1339h166l299 -1331zM621 1128l-254 -620h376zM805 1370q-57 0 -143.5 70.5t-118.5 70.5q-80 0 -152 -86l-43 121q33 43 98 72q59 29 111 31q57 2 137 -69t121 -71q51 0 109 52l39 -123q-20 -23 -76.5 -45.5t-81.5 -22.5z " />
<glyph unicode="&#xc4;" horiz-adv-x="1187" d="M850 -20l-80 387h-461l-157 -387l-166 20l577 1339h166l299 -1331zM623 1128l-254 -620h376zM877 1421q-51 0 -76 35q-20 29 -17 72q4 41 35 72.5t80 31.5q47 0 70.5 -32.5t19.5 -71.5q-4 -41 -34.5 -74t-77.5 -33zM446 1421q-51 0 -75 35q-20 29 -17 72q4 41 35 72.5 t80 31.5q47 0 70.5 -32.5t19.5 -71.5q-4 -41 -35 -74t-78 -33z" />
<glyph unicode="&#xc5;" horiz-adv-x="1187" d="M844 -20l-80 387h-461l-158 -387l-165 20l575 1339h166l299 -1331zM614 1128l-254 -620h377zM657 1405q-82 0 -129 50t-39 128q8 76 65.5 126t139.5 50t129 -50t39 -126q-8 -78 -65.5 -128t-139.5 -50zM684 1671q-88 0 -96 -88q-10 -90 78 -90t98 90q8 88 -80 88z" />
<glyph unicode="&#xc6;" horiz-adv-x="1765" d="M625 1128l-252 -620h377zM1184 1163l-41 -395h516l-17 -154l-516 2l-49 -460l547 2l-16 -158h-758l-74 367h-461l-159 -387l-166 20l577 1339h164l197 -874l90 846h735l-16 -148h-553z" />
<glyph unicode="&#xc7;" horiz-adv-x="1167" d="M616 -449q-131 0 -165 99l81 69q51 -66 99 -65q72 0 78 70q8 80 -60 79q-29 0 -74 -30l-90 43l29 174q-209 27 -321 196q-98 152 -99 381q0 307 168 533q184 250 486 252q100 0 223 -43q94 -33 153 -70l-96 -162q-174 115 -289 115q-205 0 -336 -195q-104 -152 -124 -348 q-4 -39 -5 -76q0 -188 95.5 -307t242.5 -119q174 0 340 89l64 -134q-127 -63 -195 -86q-86 -29 -190 -32l-15 -80q18 8 52 8q86 0 133 -59q39 -51 33 -123q-8 -72 -62 -123q-62 -56 -156 -56z" />
<glyph unicode="&#xc8;" horiz-adv-x="1001" d="M354 1163l-43 -395h516l-16 -154l-516 2l-49 -460l549 2l-19 -158h-729l139 1311h736l-15 -148h-553zM741 1405l-405 184l108 133l410 -196z" />
<glyph unicode="&#xc9;" horiz-adv-x="960" d="M354 1163l-43 -395h516l-16 -154l-516 2l-49 -460l549 2l-19 -158h-729l139 1311h736l-15 -148h-553zM410 1407l-82 121l452 196l82 -133z" />
<glyph unicode="&#xca;" horiz-adv-x="1001" d="M354 1163l-43 -395h516l-16 -154l-516 2l-47 -460l547 2l-19 -158h-729l139 1311h736l-15 -148h-553zM588 1534l-303 -191l16 146l307 231l266 -231l-16 -146z" />
<glyph unicode="&#xcb;" horiz-adv-x="1001" d="M358 1163l-43 -395h516l-16 -154l-514 2l-49 -460l547 2l-17 -158h-729l137 1311h736l-15 -148h-553zM811 1425q-49 0 -71.5 33t-18.5 74t33.5 73.5t79.5 32.5q47 0 71.5 -33.5t20.5 -72.5q-4 -41 -35 -74t-80 -33zM383 1425q-49 0 -71.5 33t-18.5 74t33.5 73.5 t79.5 32.5q47 0 70.5 -32.5t19.5 -73.5t-35 -74t-78 -33z" />
<glyph unicode="&#xcc;" horiz-adv-x="440" d="M47 0l139 1315h183l-140 -1315h-182zM463 1405l-408 184l111 133l407 -196z" />
<glyph unicode="&#xcd;" horiz-adv-x="440" d="M47 0l139 1315h183l-140 -1315h-182zM131 1407l-84 121l453 196l82 -133z" />
<glyph unicode="&#xce;" horiz-adv-x="440" d="M47 0l141 1315h183l-142 -1315h-182zM307 1534l-301 -191l17 146l305 231l266 -231l-16 -146z" />
<glyph unicode="&#xcf;" horiz-adv-x="440" d="M53 0l140 1315h182l-139 -1315h-183zM510 1425q-49 0 -71.5 33t-18.5 74t33.5 73.5t78.5 32.5q47 0 72 -33.5t21 -72.5q-4 -41 -35 -74t-80 -33zM82 1425q-49 0 -71.5 33t-18.5 74t33.5 73.5t78.5 32.5q47 0 71 -32.5t19.5 -73.5t-35 -74t-77.5 -33z" />
<glyph unicode="&#xd0;" horiz-adv-x="1157" d="M313 686h140l-15 -139h-139l-41 -395h184q195 0 320 153q113 135 133 334q8 74 8 137q0 418 -364 418q-59 0 -172 -4zM14 686h117l68 633q141 6 299 6q307 0 450 -123q152 -127 152 -407q0 -61 -8 -133q-33 -315 -211 -488q-186 -178 -510 -178q-59 0 -152.5 4t-159.5 4 l58 543h-117z" />
<glyph unicode="&#xd1;" horiz-adv-x="1167" d="M856 -23q-150 332 -530 973l-101 -948l-172 -2l142 1319h151l514 -932l98 924h168l-135 -1288zM846 1350q-55 0 -142.5 70.5t-117.5 70.5q-82 0 -154 -86l-43 121q35 43 100 71q59 29 111 31q55 2 135 -68.5t121 -70.5q51 0 109 51l41 -123q-20 -23 -76.5 -45t-83.5 -22z " />
<glyph unicode="&#xd2;" horiz-adv-x="1318" d="M571 -33q-233 0 -374 146q-147 156 -148 432q0 55 6 114q31 289 221.5 476.5t452.5 187.5q238 0 380 -157.5t142 -411.5q0 -47 -6 -95q-35 -328 -231 -516q-183 -176 -443 -176zM709 1171q-217 0 -359 -198q-129 -178 -129 -404q0 -190 101.5 -317t265.5 -127 q213 0 358 192q133 178 133 398q0 197 -100 326.5t-270 129.5zM895 1405l-408 184l109 133l410 -196z" />
<glyph unicode="&#xd3;" horiz-adv-x="1318" d="M571 -33q-233 0 -374 146q-147 156 -148 432q0 55 6 114q31 289 221.5 476.5t452.5 187.5q238 0 380 -157.5t142 -411.5q0 -47 -6 -95q-35 -328 -231 -516q-183 -176 -443 -176zM709 1171q-217 0 -361 -198q-127 -178 -127 -404q0 -190 101.5 -317t265.5 -127 q213 0 358 192q133 178 133 398q0 197 -100 326.5t-270 129.5zM563 1407l-84 121l451 196l84 -133z" />
<glyph unicode="&#xd4;" horiz-adv-x="1318" d="M569 -33q-233 0 -372 146q-147 156 -148 432q0 55 6 114q31 289 220.5 476.5t451.5 187.5q238 0 380 -157.5t142 -411.5q0 -47 -4 -95q-35 -328 -231 -516q-185 -176 -445 -176zM707 1171q-215 0 -359 -198q-129 -178 -129 -404q0 -190 101.5 -317t265.5 -127 q215 0 360 192q133 178 133 398q0 197 -98 323q-104 133 -274 133zM756 1554l-303 -190l16 145l307 232l266 -232l-16 -145z" />
<glyph unicode="&#xd5;" horiz-adv-x="1327" d="M573 -33q-231 0 -372 146q-147 156 -148 432q0 55 6 114q31 289 220.5 476.5t453.5 187.5q238 0 380 -157.5t142 -411.5q0 -47 -6 -95q-35 -328 -231 -516q-183 -176 -445 -176zM713 1171q-217 0 -361 -198q-127 -178 -127 -404q0 -190 101.5 -317t265.5 -127 q213 0 358 192q133 178 133 398q0 197 -100 326.5t-270 129.5zM848 1370q-55 0 -142.5 70.5t-119.5 70.5q-80 0 -152 -86l-43 121q35 43 97.5 72t111.5 31q57 2 137 -69t121 -71q51 0 109 52l41 -123q-23 -23 -78 -45.5t-82 -22.5z" />
<glyph unicode="&#xd6;" horiz-adv-x="1327" d="M575 -33q-233 0 -372 146q-150 156 -150 432q0 55 8 114q31 289 220.5 476.5t451.5 187.5q238 0 380 -157.5t142 -411.5q0 -47 -4 -95q-35 -328 -231 -516q-185 -176 -445 -176zM713 1171q-217 0 -359 -198q-129 -178 -129 -404q0 -190 101.5 -317t265.5 -127 q213 0 358 192q135 178 135 398q0 197 -101 326.5t-271 129.5zM965 1425q-49 0 -72 33t-18.5 74t34 73.5t78.5 32.5q47 0 71.5 -33.5t20.5 -72.5q-4 -41 -35.5 -74t-78.5 -33zM535 1425q-49 0 -72 33t-18.5 74t34 73.5t78.5 32.5q47 0 71.5 -33.5t20.5 -72.5 q-4 -41 -35.5 -74t-78.5 -33z" />
<glyph unicode="&#xd8;" horiz-adv-x="1318" d="M397 190l402 973q-33 8 -78 8q-215 0 -359 -198q-129 -178 -129 -402q0 -258 164 -381zM944 1092l-397 -963q37 -4 53 -4q213 0 358 192q135 178 136 398q0 248 -150 377zM895 1397l154 -49l-39 -95q254 -145 254 -501q0 -45 -4 -93q-35 -328 -234 -516 q-182 -176 -442 -176q-57 0 -101 8l-47 -116l-153 49l47 117q-266 139 -267 520q0 55 7 114q31 289 220 476.5t451 187.5q63 0 117 -12z" />
<glyph unicode="&#xd9;" horiz-adv-x="1169" d="M1012 471q-29 -256 -193 -391q-139 -115 -334 -115q-170 0 -272 96q-119 109 -119 322q0 41 6 88l88 840h183l-88 -840q-4 -41 -4 -80q0 -272 227 -272q119 0 203 76q98 92 118 276l88 840h185zM809 1405l-408 184l109 133l410 -196z" />
<glyph unicode="&#xda;" horiz-adv-x="1169" d="M1012 471q-29 -256 -193 -391q-139 -115 -336 -115q-168 0 -270 96q-119 109 -119 322q0 41 6 88l88 840h183l-88 -840q-6 -41 -7 -80q0 -272 230 -272q119 0 201 76q100 92 120 276l88 840h185zM477 1407l-84 121l453 196l82 -133z" />
<glyph unicode="&#xdb;" horiz-adv-x="1169" d="M1010 471q-27 -256 -193 -391q-139 -115 -334 -115q-170 0 -272 96q-117 109 -117 322q0 41 4 88l90 840h183l-90 -840q-4 -41 -5 -80q0 -272 230 -272q119 0 201 76q100 92 118 276l90 840h185zM653 1554l-303 -190l17 145l307 232l266 -232l-16 -145z" />
<glyph unicode="&#xdc;" horiz-adv-x="1067" d="M1016 471q-27 -256 -193 -391q-139 -115 -334 -115q-170 0 -272 96q-119 109 -119 322q0 41 6 88l89 840h182l-88 -840q-4 -41 -4 -80q0 -272 229 -272q119 0 201 76q98 92 118 276l89 840h184zM856 1425q-49 0 -71.5 33t-18.5 74t33.5 73.5t79.5 32.5q47 0 71.5 -33.5 t20.5 -72.5q-4 -41 -36 -74t-79 -33zM428 1425q-49 0 -71.5 33t-18.5 74t33.5 73.5t79.5 32.5q47 0 70.5 -32.5t19.5 -73.5t-35 -74t-78 -33z" />
<glyph unicode="&#xdd;" horiz-adv-x="1030" d="M590 557l-58 -557h-182l58 557l-287 727l168 47l233 -608l357 608l151 -47zM446 1284l-81 121l450 197l84 -134z" />
<glyph unicode="&#xde;" horiz-adv-x="1112" d="M539 297q-45 0 -88 6q-80 12 -179 84l-65 -608h-172l176 1655h172l-21 -199q113 150 287 149q190 0 295 -141q96 -129 96 -325q0 -37 -4 -74q-29 -287 -174 -426q-126 -121 -323 -121zM594 1227q-162 0 -250 -152l-53 -516q63 -123 252 -123q160 0 248 154q72 127 71 301 q0 141 -59 231q-70 105 -209 105z" />
<glyph unicode="&#xdf;" horiz-adv-x="1124" d="M604 -31q-127 0 -205 29q-88 35 -155 121l100 133q51 -84 115 -111q49 -20 151 -20q78 0 138.5 47t68.5 115q10 106 -143 159l-160 52q-92 35 -133 81q-53 61 -43 162q18 174 135 254q88 61 215 62q41 0 80 -6q16 20 33 55q0 14 2 53q8 76 -64.5 125t-163.5 49 q-109 0 -178 -59q-78 -66 -90 -187l-114 -1083h-160l114 1083q41 381 453 381q170 0 267.5 -85t97.5 -232q0 -41 -9 -80q-14 -82 -92 -190q-90 33 -192 38q-66 4 -117 -38.5t-57 -108.5q-6 -49 47 -84q37 -23 135 -55q133 -43 158 -54q90 -41 123 -98q37 -70 24 -182 q-14 -133 -129 -229.5t-252 -96.5z" />
<glyph unicode="&#xe0;" horiz-adv-x="1005" d="M831 1139l-397 184l117 133l399 -196zM748 895q-90 16 -154 16q-174 0 -275 -153q-88 -135 -88 -328q0 -299 185 -299q72 0 170 122t112 243zM922 1028l-84 -739q-4 -33 -4 -74q0 -102 22 -215h-174l-4 244l-90 -154q-88 -113 -219 -113q-156 0 -240 142q-68 117 -68 284 q0 262 162 449q168 195 426 195q66 0 138 -9.5t135 -9.5z" />
<glyph unicode="&#xe1;" horiz-adv-x="1005" d="M543 1141l-76 121l461 196l73 -133zM748 895q-90 16 -154 16q-174 0 -275 -153q-88 -135 -88 -328q0 -299 185 -299q72 0 170 122t112 243zM922 1028l-84 -739q-4 -33 -4 -74q0 -102 22 -215h-174l-4 244l-90 -154q-88 -113 -219 -113q-156 0 -240 142q-68 117 -68 284 q0 262 162 449q168 195 426 195q66 0 138 -9.5t135 -9.5z" />
<glyph unicode="&#xe2;" horiz-adv-x="1005" d="M645 1268l-311 -191l22 146l318 231l256 -231l-25 -146zM748 895q-90 16 -154 16q-174 0 -275 -153q-88 -135 -88 -328q0 -299 185 -299q72 0 170 122t112 243zM922 1028l-84 -739q-4 -33 -4 -74q0 -102 22 -215h-174l-4 244l-90 -154q-88 -113 -219 -113 q-156 0 -240 142q-68 117 -68 284q0 262 162 449q168 195 426 195q66 0 138 -9.5t135 -9.5z" />
<glyph unicode="&#xe3;" horiz-adv-x="1075" d="M780 1124q-57 0 -141 71t-115 71q-80 0 -157 -86l-35 120q37 43 100.5 72t114.5 31q57 2 133 -68.5t117 -70.5q49 0 110 51l35 -123q-23 -23 -80 -45.5t-82 -22.5zM748 895q-90 16 -154 16q-174 0 -275 -153q-88 -135 -88 -328q0 -299 185 -299q72 0 170 122t112 243z M922 1028l-84 -739q-4 -33 -4 -74q0 -102 22 -215h-174l-4 244l-90 -154q-88 -113 -219 -113q-156 0 -240 142q-68 117 -68 284q0 262 162 449q168 195 426 195q66 0 138 -9.5t135 -9.5z" />
<glyph unicode="&#xe4;" horiz-adv-x="1005" d="M868 1118q-49 0 -70.5 33t-15.5 74t38 73.5t81 32.5q47 0 69.5 -33.5t16.5 -72.5q-6 -41 -39 -74t-80 -33zM438 1118q-49 0 -70.5 33t-15.5 74t38 73.5t81 32.5t70.5 -33.5t15.5 -72.5q-6 -41 -39 -74t-80 -33zM748 895q-90 16 -154 16q-174 0 -275 -153 q-88 -135 -88 -328q0 -299 185 -299q72 0 170 122t112 243zM922 1028l-84 -739q-4 -33 -4 -74q0 -102 22 -215h-174l-4 244l-90 -154q-88 -113 -219 -113q-156 0 -240 142q-68 117 -68 284q0 262 162 449q168 195 426 195q66 0 138 -9.5t135 -9.5z" />
<glyph unicode="&#xe5;" horiz-adv-x="1005" d="M506 1159q-74 0 -117 40t-43 106q0 88 62.5 148t152.5 60q74 0 117 -40.5t43 -104.5q0 -88 -63.5 -148.5t-151.5 -60.5zM547 1425q-86 0 -101 -88q-14 -90 74 -90q86 0 101 90q14 88 -74 88zM748 895q-90 16 -154 16q-174 0 -275 -153q-88 -135 -88 -328q0 -299 185 -299 q72 0 170 122t112 243zM922 1028l-84 -739q-4 -33 -4 -74q0 -102 22 -215h-174l-4 244l-90 -154q-88 -113 -219 -113q-156 0 -240 142q-68 117 -68 284q0 262 162 449q168 195 426 195q66 0 138 -9.5t135 -9.5z" />
<glyph unicode="&#xe6;" horiz-adv-x="1587" d="M1366 680q23 223 -199 223q-150 0 -219 -74q-55 -53 -108 -215h520zM633 76q-37 -25 -115 -68q-94 -41 -209 -41q-111 0 -182.5 66.5t-71.5 185.5q0 20 2 41q18 166 127 240q68 47 256 90q117 27 226 37l14 123q6 68 -41 110.5t-119 42.5q-113 0 -284 -131l-72 115 q72 59 196 112q117 49 177 50q211 0 280 -170q150 160 381 159q135 0 229 -100q96 -106 97 -270q0 -29 -4 -58l-13 -125h-696q-8 -82 -6 -118q4 -47 33 -111q31 -70 120 -111q74 -31 150 -30q121 0 281 131l71 -115q-184 -156 -385 -156q-254 0 -356 175zM649 477 q-27 0 -163 -23.5t-181 -45.5q-88 -45 -100 -150q-8 -68 24 -111q35 -51 117 -51q80 0 168 43q106 51 115 131z" />
<glyph unicode="&#xe7;" horiz-adv-x="989" d="M459 -449q-131 0 -160 99l86 69q47 -66 92 -65q76 0 86 70q12 80 -55 79q-31 0 -78 -30l-86 43l39 172q-279 61 -297 397q-14 256 125 446q154 209 416 207q178 0 307 -108l-100 -135q-123 104 -246 104q-164 0 -260 -178q-80 -152 -72 -324q6 -133 86 -211 q72 -70 176 -69q147 0 285 112l69 -106q-170 -147 -370 -148h-4l-19 -71q18 8 51 8q76 0 121 -47q37 -43 37 -105q0 -92 -68.5 -150.5t-160.5 -58.5z" />
<glyph unicode="&#xe8;" horiz-adv-x="1017" d="M856 1139l-399 184l116 133l400 -196zM774 774q0 72 -45 100.5t-149 28.5q-166 0 -258 -137q-57 -86 -74 -182q133 -6 350 37q178 34 176 153zM236 465q-4 -29 -3 -82q2 -59 32 -129t108 -109q66 -31 137 -30q117 0 285 131l67 -115q-184 -156 -383 -156q-393 0 -416 402 q-14 262 123 450q152 211 422 211q139 0 226 -65q96 -74 96 -217q0 -90 -84 -166q-74 -63 -166 -84q-211 -47 -342 -47q-49 0 -102 6z" />
<glyph unicode="&#xe9;" horiz-adv-x="1017" d="M563 1141l-76 121l461 196l76 -133zM774 774q0 72 -45 100.5t-149 28.5q-166 0 -258 -137q-57 -86 -74 -182q133 -6 350 37q178 34 176 153zM236 465q-4 -29 -3 -82q2 -59 32 -129t108 -109q66 -31 137 -30q117 0 285 131l67 -115q-184 -156 -383 -156q-393 0 -416 402 q-14 262 123 450q152 211 422 211q139 0 226 -65q96 -74 96 -217q0 -90 -84 -166q-74 -63 -166 -84q-211 -47 -342 -47q-49 0 -102 6z" />
<glyph unicode="&#xea;" horiz-adv-x="1017" d="M690 1268l-311 -191l22 146l318 231l256 -231l-25 -146zM774 774q0 72 -45 100.5t-149 28.5q-166 0 -258 -137q-57 -86 -74 -182q133 -6 350 37q178 34 176 153zM236 465q-4 -29 -3 -82q2 -59 32 -129t108 -109q66 -31 137 -30q117 0 285 131l67 -115 q-184 -156 -383 -156q-393 0 -416 402q-14 262 123 450q152 211 422 211q139 0 226 -65q96 -74 96 -217q0 -90 -84 -166q-74 -63 -166 -84q-211 -47 -342 -47q-49 0 -102 6z" />
<glyph unicode="&#xeb;" horiz-adv-x="1017" d="M911 1118q-49 0 -70.5 33t-15.5 74t38 73.5t81 32.5q47 0 69.5 -33.5t16.5 -72.5q-6 -41 -39 -74t-80 -33zM481 1118q-49 0 -70.5 33t-15.5 74t38 73.5t81 32.5t70.5 -33.5t15.5 -72.5q-6 -41 -39 -74t-80 -33zM774 774q0 72 -45 100.5t-149 28.5q-166 0 -258 -137 q-57 -86 -74 -182q133 -6 350 37q178 34 176 153zM236 465q-4 -29 -3 -82q2 -59 32 -129t108 -109q66 -31 137 -30q117 0 285 131l67 -115q-184 -156 -383 -156q-393 0 -416 402q-14 262 123 450q152 211 422 211q139 0 226 -65q96 -74 96 -217q0 -90 -84 -166 q-74 -63 -166 -84q-211 -47 -342 -47q-49 0 -102 6z" />
<glyph unicode="&#xec;" horiz-adv-x="509" d="M80 0l108 1014h164l-108 -1014h-164zM469 1139l-406 184l109 133l410 -196z" />
<glyph unicode="&#xed;" horiz-adv-x="479" d="M80 0l108 1014h164l-108 -1014h-164zM137 1141l-80 121l451 196l82 -133z" />
<glyph unicode="&#xee;" horiz-adv-x="430" d="M80 0l108 1014h164l-108 -1014h-164zM293 1268l-301 -191l16 146l305 231l267 -231l-17 -146z" />
<glyph unicode="&#xef;" horiz-adv-x="423" d="M88 0l107 1014h163l-106 -1014h-164zM487.5 1118q-49.5 0 -72 33t-18.5 74t34 73.5t79 32.5q47 0 71.5 -33.5t20.5 -72.5q-4 -41 -34.5 -74t-80 -33zM57 1118q-47 0 -69.5 33t-18.5 74t34 73.5t77 32.5q49 0 72.5 -32.5t19.5 -73.5t-35 -74t-80 -33z" />
<glyph unicode="&#xf0;" horiz-adv-x="1153" d="M877 733q-100 168 -291 168q-145 0 -243.5 -98t-119.5 -279q-4 -33 -4 -63q0 -143 68 -236q72 -98 196 -98q164 0 271 121q100 111 118 289q11 106 5 196zM489 1255h193q-82 111 -123 150l148 92q94 -102 176 -242h278l-16 -141h-193q102 -233 103 -424q0 -33 -2 -63 q-37 -301 -174 -469q-158 -193 -435 -193q-195 0 -307 146q-100 131 -100 321q0 33 4 66q29 279 197 420q145 123 364 122q158 0 236 -90q-14 59 -70 164h-293z" />
<glyph unicode="&#xf1;" horiz-adv-x="995" d="M696 0l70 666q2 23 2 43q0 100 -53 153q-47 45 -115 45q-84 0 -182 -65q-111 -76 -121 -170l-70 -672h-161l106 1014h162l-12 -115q100 84 165.5 116t145.5 32q119 0 207 -84q94 -92 94 -230q0 -20 -2 -41l-74 -692h-162zM727 1124q-57 0 -144 71t-120 71q-80 0 -152 -86 l-41 120q33 43 99 72q59 29 108 31q57 2 138 -68.5t122 -70.5q47 0 109 51l39 -123q-23 -23 -78 -45.5t-80 -22.5z" />
<glyph unicode="&#xf2;" horiz-adv-x="1112" d="M496 -23q-244 0 -353 162q-78 117 -77 299q0 39 4 78q27 264 209 412q150 121 333 121q166 0 283 -105q139 -123 139 -348q0 -39 -4 -80q-20 -182 -131 -334q-151 -205 -403 -205zM606 911q-178 0 -280 -155q-86 -133 -86 -320q0 -141 61 -227q68 -98 201 -98 q172 0 270 157q82 133 82 318q0 141 -57 227q-66 98 -191 98zM838 1139l-410 184l111 133l409 -196z" />
<glyph unicode="&#xf3;" horiz-adv-x="1112" d="M496 -23q-244 0 -353 162q-78 117 -77 299q0 39 4 78q27 264 209 412q150 121 333 121q164 0 283 -105q139 -123 139 -348q0 -39 -4 -80q-20 -182 -131 -334q-151 -205 -403 -205zM606 911q-178 0 -280 -155q-86 -133 -86 -320q0 -141 61 -227q68 -98 201 -98 q172 0 270 157q82 133 82 318q0 141 -57 227q-66 98 -191 98zM506 1141l-84 121l450 196l82 -133z" />
<glyph unicode="&#xf4;" horiz-adv-x="1112" d="M496 -23q-244 0 -353 162q-78 117 -77 299q0 39 4 78q27 264 209 412q150 121 333 121q166 0 283 -105q139 -123 139 -348q0 -39 -4 -80q-20 -182 -131 -334q-151 -205 -403 -205zM606 911q-178 0 -280 -155q-86 -133 -86 -320q0 -141 61 -227q68 -98 201 -98 q172 0 270 157q82 133 82 318q0 141 -57 227q-64 98 -191 98zM639 1268l-301 -191l14 146l305 231l267 -231l-15 -146z" />
<glyph unicode="&#xf5;" horiz-adv-x="1112" d="M498 -23q-242 0 -351 162q-80 117 -79 299q0 39 4 78q29 264 209 412q150 121 335 121q164 0 281 -105q139 -123 139 -348q0 -39 -4 -80q-18 -182 -131 -334q-149 -205 -403 -205zM608 911q-178 0 -278 -155q-86 -133 -86 -320q0 -141 59 -227q70 -98 201 -98 q174 0 270 157q84 133 84 318q0 141 -57 227q-66 98 -193 98zM791 1124q-55 0 -142.5 71t-118.5 71q-80 0 -153 -86l-41 120q33 43 98 72q59 29 111 31q55 2 136 -68.5t122 -70.5q51 0 106 51l41 -123q-20 -23 -76 -45.5t-83 -22.5z" />
<glyph unicode="&#xf6;" horiz-adv-x="1112" d="M502 -23q-242 0 -352 162q-78 117 -78 299q0 39 4 78q27 264 209 412q150 121 333 121q166 0 283 -105q139 -123 139 -348q0 -39 -4 -80q-20 -182 -131 -334q-151 -205 -403 -205zM612 911q-178 0 -278 -155q-88 -133 -88 -320q0 -141 61 -227q68 -98 201 -98 q174 0 270 157q84 133 84 318q0 141 -57 227q-66 98 -193 98zM840 1118q-49 0 -73 33t-17 74q4 41 33.5 73.5t78.5 32.5q47 0 71.5 -33.5t20.5 -72.5q-6 -41 -36.5 -74t-77.5 -33zM412 1118q-49 0 -73 33t-17 74q4 41 33.5 73.5t78.5 32.5q47 0 70.5 -32.5t19.5 -73.5 q-6 -41 -32 -72q-33 -35 -80 -35z" />
<glyph unicode="&#xf7;" horiz-adv-x="1015" d="M540.5 813q-51.5 0 -87 39t-35.5 96.5t35.5 96t87 38.5t87.5 -38.5t36 -96t-36 -96.5t-87.5 -39zM109 563v144h804v-144h-804zM540.5 190q-51.5 0 -87 39t-35.5 96.5t35.5 96.5t87 39t87.5 -39t36 -96.5t-36 -96.5t-87.5 -39z" />
<glyph unicode="&#xf8;" horiz-adv-x="1118" d="M328 188l295 723h-7q-178 0 -278 -155q-88 -133 -88 -320q0 -160 78 -248zM774 852l-303 -739q12 -2 41 -2q174 0 270 157q84 135 84 317.5t-92 266.5zM735 1184l156 -49l-57 -140q209 -117 208 -397q0 -41 -4 -82q-20 -182 -131 -334q-150 -205 -401 -205q-49 0 -88 7 l-51 -125l-156 49l53 127q-188 113 -188 401q0 41 4 80q27 264 209 412q150 121 332 121q20 0 57 -5z" />
<glyph unicode="&#xf9;" horiz-adv-x="987" d="M848 0h-146q-2 29 -8 106q-170 -143 -332 -143q-111 0 -184 82q-82 86 -82 229q0 27 2 54l74 686h162l-72 -678q-4 -25 -4 -47q0 -180 160 -180q96 0 197.5 76.5t109.5 150.5l72 678h159zM772 1139l-405 184l108 133l410 -196z" />
<glyph unicode="&#xfa;" horiz-adv-x="987" d="M848 0h-146q-2 29 -8 106q-170 -143 -332 -143q-111 0 -188.5 84t-77.5 227q0 27 2 54l74 686h162l-72 -678q-4 -25 -4 -47q0 -180 160 -180q96 0 197.5 76.5t109.5 150.5l72 678h159zM420 1141l-82 121l450 196l82 -133z" />
<glyph unicode="&#xfb;" horiz-adv-x="987" d="M848 0h-146q-2 29 -8 106q-170 -143 -332 -143q-109 0 -184 82q-82 86 -82 229q0 27 2 54l74 686h162l-72 -678q-4 -25 -4 -47q0 -180 160 -180q96 0 197.5 76.5t109.5 150.5l72 678h159zM596 1268l-301 -191l16 146l305 231l267 -231l-17 -146z" />
<glyph unicode="&#xfc;" horiz-adv-x="987" d="M856 0h-145q-4 29 -11 106q-170 -143 -329 -143q-111 0 -187 82q-82 86 -82 229q0 27 2 54l74 686h162l-72 -678q-2 -25 -2 -47q0 -180 158 -180q96 0 197.5 76.5t109.5 150.5l72 678h160zM797 1118q-49 0 -72 33t-18.5 74t34 73.5t78.5 32.5q47 0 71.5 -33.5t20.5 -72.5 q-4 -41 -34.5 -74t-79.5 -33zM369 1118q-49 0 -72 33t-18.5 74t34 73.5t78.5 32.5q47 0 70.5 -32.5t19.5 -73.5t-34.5 -74t-77.5 -33z" />
<glyph unicode="&#xfd;" horiz-adv-x="983" d="M312 1172l-84 121l450 196l82 -133zM459 -172q-43 -88 -133 -154q-102 -76 -215 -75q-31 0 -138 36l68 146q51 -27 98 -29h3q93 0 177 121q6 10 101 180l-287 926l162 43l221 -758l352 756l142 -35z" />
<glyph unicode="&#xfe;" horiz-adv-x="1069" d="M502 -20q-82 0 -133 26l-115 78l-51 -483h-176l192 1802h170l-59 -545q131 166 321 166q180 0 277 -119q90 -111 90 -293q0 -35 -4 -71q-29 -291 -178 -437q-131 -124 -334 -124zM608 881q-82 0 -161.5 -50.5t-127.5 -132.5l-51 -499q27 -41 111 -64q70 -20 137 -20 q160 0 250 164q74 135 74 309q-1 293 -232 293z" />
<glyph unicode="&#xff;" horiz-adv-x="956" d="M453 -172q-43 -88 -134 -154q-102 -76 -213 -75q-33 0 -139 36l68 146q51 -27 98 -29q94 -2 186 137l105 197l-295 893l160 43l233 -725l342 723l140 -35zM772 1118q-51 0 -73.5 33t-18.5 74t34.5 73.5t80.5 32.5q47 0 70.5 -33.5t19.5 -72.5q-4 -41 -35 -74t-78 -33z M344 1118q-51 0 -73.5 33t-18.5 74t34.5 73.5t80.5 32.5q47 0 69.5 -32.5t18.5 -73.5t-34 -74t-77 -33z" />
<glyph unicode="&#x152;" horiz-adv-x="2105" d="M1176 0l49 457q-231 -463 -623 -463q-231 0 -373 151q-147 158 -147 437q0 57 6 116q31 287 218.5 467.5t451.5 180.5q381 0 516 -426l43 409h727l-16 -147h-543l-41 -396h522l-16 -153h-529l-47 -461h547l-18 -172h-727zM739 1190q-219 0 -358 -189q-125 -172 -125 -395 q0 -195 100.5 -323.5t261.5 -128.5q213 0 359 198q131 182 131 402q0 193 -96 311q-103 125 -273 125z" />
<glyph unicode="&#x153;" horiz-adv-x="1906" d="M618 911q-180 0 -280 -155q-86 -133 -86 -320q0 -141 59 -227q70 -98 201 -98q174 0 272 157q82 133 82 318q0 141 -57 227q-66 98 -191 98zM1157 526q-18 -174 23 -270q29 -72 110 -111q63 -31 135 -30q121 0 283 131l70 -115q-180 -156 -381 -156q-360 0 -412 338 q-150 -336 -479 -336q-242 0 -350 162q-80 115 -80 297q0 41 4 80q29 264 209 412q150 121 334 121q139 0 249 -78q127 -90 160 -258q63 150 189.5 237.5t296.5 87.5q141 0 231 -84q100 -90 100 -247q0 -27 -4 -56l-12 -125h-676zM1688 680q23 223 -199 223q-104 0 -168 -43 q-86 -59 -137 -205h499z" />
<glyph unicode="&#x178;" horiz-adv-x="987" d="M588 557l-58 -557h-182l58 557l-287 727l168 47l233 -608l357 608l151 -47zM833.5 1425q-49.5 0 -72 33t-18 74t34 73.5t78.5 32.5q47 0 71.5 -33.5t20.5 -72.5q-4 -41 -34.5 -74t-80 -33zM403.5 1425q-49.5 0 -72 33t-18.5 74t34 73.5t79 32.5q47 0 71.5 -33.5 t20.5 -72.5q-4 -41 -34.5 -74t-80 -33z" />
<glyph unicode="&#x2c6;" horiz-adv-x="690" d="M354 1268l-303 -191l17 146l307 231l266 -231l-16 -146z" />
<glyph unicode="&#x2dc;" horiz-adv-x="768" d="M549 1124q-57 0 -144.5 71t-117.5 71q-80 0 -154 -86l-41 120q33 43 98 72q59 29 111 31q57 2 137 -68.5t121 -70.5q47 0 109 51l39 -123q-20 -23 -76.5 -45.5t-81.5 -22.5z" />
<glyph unicode="&#x2000;" horiz-adv-x="878" />
<glyph unicode="&#x2001;" horiz-adv-x="1759" />
<glyph unicode="&#x2002;" horiz-adv-x="878" />
<glyph unicode="&#x2003;" horiz-adv-x="1759" />
<glyph unicode="&#x2004;" horiz-adv-x="585" />
<glyph unicode="&#x2005;" horiz-adv-x="438" />
<glyph unicode="&#x2006;" horiz-adv-x="292" />
<glyph unicode="&#x2007;" horiz-adv-x="292" />
<glyph unicode="&#x2008;" horiz-adv-x="219" />
<glyph unicode="&#x2009;" horiz-adv-x="350" />
<glyph unicode="&#x200a;" horiz-adv-x="96" />
<glyph unicode="&#x2010;" horiz-adv-x="778" d="M102 547v190h574v-190h-574z" />
<glyph unicode="&#x2011;" horiz-adv-x="778" d="M102 547v190h574v-190h-574z" />
<glyph unicode="&#x2012;" horiz-adv-x="778" d="M102 547v190h574v-190h-574z" />
<glyph unicode="&#x2013;" horiz-adv-x="1024" d="M70 598v145h884v-145h-884z" />
<glyph unicode="&#x2014;" horiz-adv-x="2048" d="M55 598v145h1938v-145h-1938z" />
<glyph unicode="&#x2018;" horiz-adv-x="436" d="M401 1450l-88 25q-213 -244 -233 -418h199q10 90 53 221q38 121 69 172z" />
<glyph unicode="&#x2019;" horiz-adv-x="493" d="M76 1081l88 -24q213 244 233 418h-198q-10 -90 -54 -222q-38 -121 -69 -172z" />
<glyph unicode="&#x201a;" horiz-adv-x="438" d="M174 -262l-113 -8q2 4 68 92q43 57 55 98q-129 6 -114 148q6 57 55 99t98 42t89 -42t34 -99q-10 -92 -61 -179q-29 -47 -111 -151z" />
<glyph unicode="&#x201c;" horiz-adv-x="907" d="M891 1450l-88 25q-213 -244 -234 -418h199q10 90 53 221q39 121 70 172zM481 1450l-88 25q-213 -244 -233 -418h198q10 90 54 221q38 121 69 172z" />
<glyph unicode="&#x201d;" horiz-adv-x="907" d="M43 1081l88 -24q213 244 234 418h-199q-10 -90 -53 -222q-39 -121 -70 -172zM453 1081l88 -24q213 244 233 418h-199q-10 -90 -53 -222q-38 -121 -69 -172z" />
<glyph unicode="&#x201e;" horiz-adv-x="854" d="M43 -147l88 -25q213 244 234 418h-199q-10 -90 -53 -221q-39 -121 -70 -172zM453 -147l88 -25q213 244 233 418h-199q-10 -90 -53 -221q-38 -121 -69 -172z" />
<glyph unicode="&#x2022;" horiz-adv-x="577" d="M264 389q-78 0 -127 58.5t-39 148.5q10 88 71.5 146.5t139.5 58.5q76 0 125 -58.5t39 -146.5t-70.5 -147.5t-138.5 -59.5z" />
<glyph unicode="&#x2026;" horiz-adv-x="1271" d="M1020 -33q-57 0 -93 38t-30 104q6 68 53 106q41 35 98.5 35t92.5 -37t28 -104q-6 -66 -50 -104t-99 -38zM633 -33q-57 0 -93 38t-30 104q6 68 53 106q41 35 98.5 35t92 -37t28.5 -104q-6 -66 -50 -104t-99 -38zM246 -33q-57 0 -93 38t-30 104q6 68 53 106q41 35 98.5 35 t92 -37t28.5 -104q-6 -66 -50 -104t-99 -38z" />
<glyph unicode="&#x202f;" horiz-adv-x="350" />
<glyph unicode="&#x2039;" horiz-adv-x="653" d="M303 586l268 -330l-145 -6l-311 342l311 332l145 -6z" />
<glyph unicode="&#x203a;" horiz-adv-x="649" d="M242 250l-146 6l266 330l-266 332l146 6l313 -332z" />
<glyph unicode="&#x2044;" horiz-adv-x="1099" d="M231 135l-149 103l862 966l148 -102z" />
<glyph unicode="&#x205f;" horiz-adv-x="438" />
<glyph unicode="&#x2122;" horiz-adv-x="1312" d="M322 645h-132l60 563h-195l11 107h507l-10 -107h-182zM1145 1053l-199 -408h-110l-115 412l-43 -412h-123l70 674h159l134 -469l231 469h154l-70 -674h-131z" />
<glyph unicode="&#xe000;" horiz-adv-x="1040" d="M0 1040h1040v-1040h-1040v1040z" />
<glyph unicode="&#xfb01;" horiz-adv-x="1140" d="M957 1233q-45 0 -75 32q-25 26 -24 64q0 8 1 17q4 47 39.5 78.5t82.5 31.5q43 0 72 -32q25 -28 25 -67v-11q-6 -49 -41 -81t-80 -32zM732 0l108 1014h166l-109 -1014h-165zM748 1333q-88 61 -168 64h-5q-69 0 -116 -64q-55 -70 -66 -190l-14 -129h285l-15 -133h-284 l-138 -1233h-155l137 1233h-160l14 133h160l15 135q14 141 84 242q96 137 270 137q90 0 137 -21q14 -6 109 -69z" />
<glyph unicode="&#xfb02;" horiz-adv-x="1142" d="M908 0h-160l152 1430h159zM748 1333q-88 61 -168 64h-5q-69 0 -116 -64q-55 -70 -66 -190l-14 -129h285l-15 -133h-284l-138 -1233h-155l137 1233h-160l14 133h160l15 135q14 141 84 242q96 137 270 137q90 0 137 -21q14 -6 109 -69z" />
<glyph unicode="&#xfb03;" horiz-adv-x="1804" d="M1620 1233q-45 0 -75 32q-25 26 -24 64q0 8 1 17q4 47 39.5 78.5t82.5 31.5q43 0 72 -32q25 -28 25 -67v-11q-6 -49 -41 -81t-80 -32zM1395 0l108 1014h166l-109 -1014h-165zM1412 1333q-88 61 -168 64h-5q-69 0 -116 -64q-55 -70 -66 -190l-14 -129h285l-15 -133h-284 l-138 -1233h-155l137 1233h-160l14 133h160l15 135q14 141 84 242q96 137 270 137q90 0 137 -21q14 -6 109 -69zM748 1333q-88 61 -168 64h-5q-69 0 -116 -64q-55 -70 -66 -190l-14 -129h285l-15 -133h-284l-138 -1233h-155l137 1233h-160l14 133h160l15 135q14 141 84 242 q96 137 270 137q90 0 137 -21q14 -6 109 -69z" />
<glyph unicode="&#xfb04;" horiz-adv-x="1806" d="M1571 0h-160l152 1430h159zM1412 1333q-88 61 -168 64h-5q-69 0 -116 -64q-55 -70 -66 -190l-14 -129h285l-15 -133h-284l-138 -1233h-155l137 1233h-160l14 133h160l15 135q14 141 84 242q96 137 270 137q90 0 137 -21q14 -6 109 -69zM748 1333q-88 61 -168 64h-5 q-69 0 -116 -64q-55 -70 -66 -190l-14 -129h285l-15 -133h-284l-138 -1233h-155l137 1233h-160l14 133h160l15 135q14 141 84 242q96 137 270 137q90 0 137 -21q14 -6 109 -69z" />
</font>
</defs>
</svg>
